<?xml version="1.0" standalone="no"?> <!DOCTYPE svg PUBLIC "-//W3C//DTD SVG 1.0//EN" "http://www.w3.org/TR/2001/REC-SVG-20010904/DTD/svg10.dtd" > <svg xmlns="http://www.w3.org/2000/svg" width="100%" height="100%">
<defs >
<font horiz-adv-x="1322" ><font-face
    font-family="Codec Pro"
    units-per-em="2048"
    panose-1="0 0 7 0 0 0 0 0 0 0"
    ascent="1409"
    descent="-354"
    alphabetic="0" />
<missing-glyph horiz-adv-x="478" />
<glyph unicode=" " glyph-name="space" horiz-adv-x="492" />
<glyph unicode="!" glyph-name="exclam" horiz-adv-x="617" d="M148 726V1360H465V724L421 427H192L148 726ZM258 -28T220 -7T160 51T139 130Q139 173 160 209T219 266T307 288Q358 288 396 267T456 209T478 130Q478 86 457 50T397 -7T307 -28Q258 -28 220 -7Z" />
<glyph unicode="&quot;" glyph-name="quotedbl" horiz-adv-x="865" d="M105 1360H391L363 887H129L105 1360ZM497 1360H783L755 887H521L497 1360Z" />
<glyph unicode="#" glyph-name="numbersign" horiz-adv-x="1327" d="M227 299H79L85 523H264L305 771H149L154 994H340L399 1344H672L614 994H752L811 1344H1082L1025 994H1170L1166 771H989L947 523H1101L1098 299H911L865 16H592L639 299H501L454 16H180L227
299ZM675 523L716 771H578L536 523H675Z" />
<glyph unicode="$" glyph-name="dollar" horiz-adv-x="1257" d="M1201 219T1092 114T792 -22V-179H501V-25Q350 -4 252 63T108 223T62 421H379Q379 335 445 284T632 232Q762 232 821 270T880 387Q880 433 850 464T761 516T607 560Q462 595 354 641T171 773T96
993Q96 1153 199 1257T501 1387V1560H792V1379Q971 1344 1062 1237T1154 966H837Q837 1031 785 1074T617 1118Q413 1118 413 991Q413 948 444 918T541 865T717 821Q944 775 1072 674T1201 386Q1201 219 1092 114Z" />
<glyph unicode="%" glyph-name="percent" horiz-adv-x="1846" d="M352 695T266 740T131 865T81 1040Q81 1137 130 1216T266 1341T457 1387Q562 1387 648 1342T783 1218T832 1041Q832 945 782 866T646 741T456 695Q352 695 266 740ZM1197 1358H1481L643 -2H364L1197
1358ZM511 906T543 943T576 1039Q576 1100 543 1139T457 1179Q404 1179 371 1141T338 1041Q338 982 371 944T458 906Q511 906 543 943ZM1254 -26T1168 19T1033 143T983 317Q983 414 1032 493T1168 619T1360 665Q1464 665 1549 620T1684 496T1734 319Q1734 223 1685
144T1549 20T1357 -26Q1254 -26 1168 19ZM1413 183T1446 221T1479 317Q1479 378 1446 417T1359 457Q1306 457 1273 419T1240 319Q1240 261 1273 222T1360 183Q1413 183 1446 221Z" />
<glyph unicode="&amp;" glyph-name="ampersand" horiz-adv-x="1505" d="M973 95Q879 35 779 2T582 -31Q441 -31 321 21T130 169T59 386Q59 483 102 555T206 676T357 775Q292 829 250 901T208 1063Q208 1163 261 1238T407 1353T616 1394Q744 1393 839 1354T987
1238T1040 1053Q1040 953 973 870T797 723L1010 482Q1079 586 1088 701L1368 700Q1363 584 1317 476T1190 274L1430 0H1060L973 95ZM637 912T663 929T711 976T732 1047Q732 1094 704 1122T629 1151Q575 1151 546 1118T516 1035Q516 1007 527 983T550 942T593 889Q637
912 663 929ZM689 227T795 295L526 594Q451 550 410 506T368 394Q368 342 397 304T473 247T572 227Q689 227 795 295Z" />
<glyph unicode="&apos;" glyph-name="quotesingle" horiz-adv-x="473" d="M105 1360H391L363 887H129L105 1360Z" />
<glyph unicode="(" glyph-name="parenleft" horiz-adv-x="743" d="M258 -187T184 49T109 557Q109 832 181 1062T431 1504H729Q647 1404 578 1243T467 900T426 558V545Q427 385 465 212T572 -118T730 -386H434Q258 -187 184 49Z" />
<glyph unicode=")" glyph-name="parenright" horiz-adv-x="743" d="M13 -386Q102 -275 170 -119T277 211T317 545V558Q317 717 276 899T166 1243T14 1504H312Q490 1292 562 1062T634 557Q634 286 560 50T310 -386H13Z" />
<glyph unicode="*" glyph-name="asterisk" horiz-adv-x="832" d="M342 1207L329 1402H514L501 1209L660 1315L753 1159L581 1073L753 986L661 830L501 936L512 744H329L342 937L182 830L90 986L262 1072L90 1158L182 1314L342 1207Z" />
<glyph unicode="+" glyph-name="plus" horiz-adv-x="1155" d="M447 501H114V748L447 749L446 1098H702L703 749H1041V501H703V153H447V501Z" />
<glyph unicode="," glyph-name="comma" horiz-adv-x="538" d="M186 268H483L292 -191H66L186 268Z" />
<glyph unicode="-" glyph-name="hyphen" horiz-adv-x="945" d="M114 667H832V416H114V667Z" />
<glyph unicode="." glyph-name="period" horiz-adv-x="563" d="M230 -29T192 -8T133 49T112 129Q112 172 133 208T192 265T281 287Q331 287 370 266T430 208T451 129Q451 85 430 49T370 -8T280 -29Q230 -29 192 -8Z" />
<glyph unicode="/" glyph-name="slash" horiz-adv-x="892" d="M591 1425H927L274 -208L-64 -209L591 1425Z" />
<glyph unicode="0" glyph-name="zero" horiz-adv-x="1301" d="M452 -33T318 62T118 317T52 675Q52 877 121 1040T325 1298T649 1393Q856 1393 990 1295T1186 1036T1248 680Q1248 481 1182 319T980 62T650 -33Q452 -33 318 62ZM736 257T799 309T897 456T931 680Q931
807 898 902T801 1050T648 1103Q564 1103 501 1051T404 903T369 678Q369 551 403 456T500 309T650 257Q736 257 799 309Z" />
<glyph unicode="1" glyph-name="one" horiz-adv-x="717" d="M260 1064L31 979L30 1255L315 1361H577V0H260V1064Z" />
<glyph unicode="2" glyph-name="two" horiz-adv-x="1157" d="M484 554Q581 642 638 703T725 820T755 932Q755 1005 708 1051T582 1098Q491 1098 435 1036T378 825H65Q65 969 114 1096T278 1306T573 1388Q730 1388 843 1327T1014 1162T1072 932Q1072 807 1008 698T821
482L539 240L674 272H1101V0H66V175L484 554Z" />
<glyph unicode="3" glyph-name="three" horiz-adv-x="1143" d="M430 -33T311 20T120 188T44 477H358Q364 360 427 307T586 254Q639 254 683 278T754 346T780 443Q780 495 754 538T678 608T557 634H345V791L600 1103L601 1105H122V1360H981V1199L680 857L676 853Q879
830 989 733T1099 434Q1099 302 1031 196T844 28T579 -33Q430 -33 311 20Z" />
<glyph unicode="4" glyph-name="four" horiz-adv-x="1222" d="M677 272H32L10 495L637 1364H994V531H1190V272H994V0H677V272ZM677 528V980L350 528H677Z" />
<glyph unicode="5" glyph-name="five" horiz-adv-x="1176" d="M466 -33T349 16T155 174T70 456H377Q385 388 419 343T501 276T604 254Q667 254 713 280T783 351T807 451Q807 544 744 588T563 632L287 634L157 741L246 1361H1029V1105H513L479 855H649Q796 855
902 807T1066 668T1123 449Q1123 322 1059 212T877 34T604 -33Q466 -33 349 16Z" />
<glyph unicode="6" glyph-name="six" horiz-adv-x="1137" d="M418 -31T301 31T119 202T55 441Q55 513 71 574T121 702T220 873L526 1360H890L565 863Q611 887 660 887Q772 887 871 830T1030 671T1091 441Q1091 310 1027 202T846 32T573 -31Q418 -31 301 31ZM655
256T704 305T753 437Q753 520 704 570T574 621Q518 621 477 596T415 529T393 437Q393 355 442 306T574 256Q655 256 704 305Z" />
<glyph unicode="7" glyph-name="seven" horiz-adv-x="1054" d="M645 1105H42V1360H1021V1201L454 0H119L645 1105Z" />
<glyph unicode="8" glyph-name="eight" horiz-adv-x="1153" d="M415 -33T296 22T115 176T52 397Q52 487 84 559T168 676T279 740Q235 755 197 796T135 895T112 1011Q112 1132 174 1218T343 1349T578 1393Q711 1393 816 1350T981 1220T1041 1012Q1041 953 1018
895T955 795T872 739Q933 722 985 677T1069 560T1101 397Q1101 274 1038 177T857 23T578 -33Q415 -33 296 22ZM622 854T657 873T712 926T732 997Q732 1035 712 1067T657 1119T576 1139Q531 1139 495 1120T439 1067T418 997Q418 959 438 926T494 874T576 854Q622
854 657 873ZM635 223T685 247T764 314T793 410Q793 465 764 507T685 574T576 598Q517 598 468 574T389 508T360 410Q360 357 389 315T467 248T576 223Q635 223 685 247Z" />
<glyph unicode="9" glyph-name="nine" horiz-adv-x="1137" d="M719 1391T836 1329T1018 1158T1082 919Q1082 847 1066 786T1016 658T917 487L611 0H247L572 497Q526 473 477 473Q365 473 266 530T107 689T46 919Q46 1050 110 1158T291 1328T564 1391Q719 1391
836 1329ZM482 1104T433 1055T384 923Q384 840 433 790T563 739Q619 739 660 764T722 831T744 923Q744 1005 695 1054T563 1104Q482 1104 433 1055Z" />
<glyph unicode=":" glyph-name="colon" horiz-adv-x="563" d="M230 753T192 774T133 831T112 911Q112 954 133 990T192 1047T281 1069Q331 1069 370 1048T430 990T451 911Q451 867 430 831T370 774T280 753Q230 753 192 774ZM230 219T192 240T133 297T112 377Q112
420 133 456T192 513T281 535Q331 535 370 514T430 456T451 377Q451 333 430 297T370 240T280 219Q230 219 192 240Z" />
<glyph unicode=";" glyph-name="semicolon" horiz-adv-x="542" d="M186 268H483L292 -191H66L186 268ZM248 750T210 771T151 828T130 908Q130 951 151 987T210 1044T299 1066Q349 1066 388 1045T448 987T469 908Q469 864 448 828T388 771T298 750Q248 750 210 771Z" />
<glyph unicode="&lt;" glyph-name="less" horiz-adv-x="1211" d="M133 497V687L1031 1104V817L496 591L1031 368V80L133 497Z" />
<glyph unicode="=" glyph-name="equal" horiz-adv-x="1155" d="M114 952H1041V704H114V952ZM114 479L1041 480V232H114V479Z" />
<glyph unicode="&gt;" glyph-name="greater" horiz-adv-x="1125" d="M114 299L648 523L114 749V1036L1011 618V429L114 11V299Z" />
<glyph unicode="?" glyph-name="question" horiz-adv-x="1002" d="M294 579T331 653T442 797Q475 828 530 871Q588 918 613 945T639 1002Q639 1050 601 1081T478 1112Q401 1112 361 1075T320 975H11Q11 1096 64 1190T224 1339T489 1394Q617 1394 721 1348T887
1216T948 1021Q948 935 915 869T833 757T709 654Q640 603 613 565T586 469V428H294V471Q294 579 331 653ZM397 -29T359 -8T299 50T278 129Q278 173 299 209T358 266T447 288Q497 288 536 267T596 209T618 129Q618 85 597 49T536 -8T446 -29Q397 -29 359 -8Z" />
<glyph unicode="@" glyph-name="at" horiz-adv-x="1965" d="M696 -390T480 -277T158 36T52 496Q52 746 180 942T529 1248T1014 1358Q1268 1358 1473 1262T1795 995T1913 605Q1913 407 1839 278T1644 88T1378 28Q1269 28 1195 75T1105 205Q1061 140 980 109T816
77Q774 77 740 85Q636 112 576 206T515 433Q515 553 556 650T668 810T830 892Q850 895 873 895Q940 895 1004 869T1095 791L1108 864L1405 863Q1360 569 1332 391Q1329 369 1329 351Q1329 304 1349 288T1403 271Q1446 271 1494 306T1575 415T1609 602Q1609 759
1534 873T1324 1049T1011 1110Q834 1110 683 1031T441 812T350 496Q350 321 410 189T587 -25T870 -130Q943 -140 1009 -140L1474 -141V-388Q1359 -389 1245 -389T1015 -389Q696 -390 480 -277ZM931 300T961 321T1013 373T1039 433L1067 608Q1050 634 1021 648T965
663Q956 663 952 662Q892 649 852 591T807 436Q806 382 831 341T902 300Q931 300 961 321Z" />
<glyph unicode="A" glyph-name="A" horiz-adv-x="1423" d="M1083 0L995 221H428L340 0H5L563 1361H860L1418 0H1083ZM532 484H891L722 909L713 951H710L701 909L532 484Z" />
<glyph unicode="B" glyph-name="B" horiz-adv-x="1308" d="M745 1360Q878 1360 977 1316T1130 1186T1184 982Q1184 927 1162 874T1101 780T1019 721Q1085 698 1140 651T1227 541T1260 405Q1260 267 1195 176T1026 43T802 0H139V1360H745ZM788 813T826 852T865
953Q865 1012 827 1050T730 1089H460V813H729Q788 813 826 852ZM845 271T890 314T936 430Q936 471 915 505T857 559T773 579H460V271H773Q845 271 890 314Z" />
<glyph unicode="C" glyph-name="C" horiz-adv-x="1505" d="M581 -31T414 64T150 324T52 682Q52 877 149 1040T414 1299T779 1394Q930 1394 1074 1333T1321 1143T1452 826H1129Q1095 969 1000 1036T770 1104Q659 1104 568 1053T423 905T369 681Q369 550 422 455T567
309T770 259Q904 259 999 326T1128 536H1452Q1424 348 1322 220T1075 31T779 -31Q581 -31 414 64Z" />
<glyph unicode="D" glyph-name="D" horiz-adv-x="1471" d="M690 1360Q906 1360 1071 1275T1328 1036T1419 681Q1419 479 1329 325T1074 85T693 0H139V1360H690ZM813 281T907 328T1050 465T1100 677Q1100 799 1052 889T910 1029T681 1079H452V281H682Q813 281 907 328Z" />
<glyph unicode="E" glyph-name="E" horiz-adv-x="1166" d="M139 1360H1098V1079H456V822H1007V558H456V282H1107V0H139V1360Z" />
<glyph unicode="F" glyph-name="F" horiz-adv-x="1155" d="M139 1360H1098V1078H456V766H1007V501H456V0H139V1360Z" />
<glyph unicode="G" glyph-name="G" horiz-adv-x="1528" d="M579 -31T413 65T150 324T52 682Q52 877 150 1040T415 1298T781 1394Q928 1394 1074 1334T1325 1160T1457 892H1135Q1085 993 991 1048T772 1104Q661 1104 569 1053T423 905T369 681Q369 550 423 455T568
309T772 259Q909 259 1002 321T1124 494H760V747H1476Q1478 509 1396 334T1154 64T774 -31Q579 -31 413 65Z" />
<glyph unicode="H" glyph-name="H" horiz-adv-x="1507" d="M139 1360H456V830H1050V1360H1368V0H1050V549H456V0H139V1360Z" />
<glyph unicode="I" glyph-name="I" horiz-adv-x="596" d="M139 1360H456V0H139V1360Z" />
<glyph unicode="J" glyph-name="J" horiz-adv-x="904" d="M282 282Q369 282 420 335T472 481V1360H787V462Q787 316 722 212T541 54T280 0H42V282H282Z" />
<glyph unicode="K" glyph-name="K" horiz-adv-x="1379" d="M833 755L1372 0H998L626 527L456 310V0H139V1360H456V730L941 1360H1310L833 755Z" />
<glyph unicode="L" glyph-name="L" horiz-adv-x="1067" d="M139 1360H456V282H1027V0H139V1360Z" />
<glyph unicode="M" glyph-name="M" horiz-adv-x="1685" d="M139 1360H418L841 775V776L1270 1360H1546V0H1230V855L881 366H801L456 858V0H139V1360Z" />
<glyph unicode="N" glyph-name="N" horiz-adv-x="1520" d="M139 1360H416L1064 516V1360H1381V0H1107L457 845H456V0H139V1360Z" />
<glyph unicode="O" glyph-name="O" horiz-adv-x="1584" d="M591 -31T421 64T152 324T52 682Q52 877 151 1040T421 1298T792 1394Q992 1394 1162 1299T1431 1040T1531 682Q1531 488 1432 324T1162 65T792 -31Q591 -31 421 64ZM909 259T1005 313T1158 464T1215 681Q1215
802 1159 898T1006 1049T792 1104Q675 1104 578 1050T425 899T369 681Q369 561 425 465T579 314T792 259Q909 259 1005 313Z" />
<glyph unicode="P" glyph-name="P" horiz-adv-x="1241" d="M728 1360Q869 1360 980 1300T1155 1132T1218 889Q1218 745 1156 635T984 465T732 404H456V0H139V1360H728ZM766 685T808 712T876 786T901 889Q901 936 876 980T808 1051T715 1078H456V685H715Q766 685 808 712Z" />
<glyph unicode="Q" glyph-name="Q" horiz-adv-x="1611" d="M1531 522T1463 381T1273 141L1476 -150L1180 -317L1000 -2Q899 -31 792 -31Q591 -31 421 64T152 324T52 682Q52 877 151 1040T421 1298T792 1394Q992 1394 1162 1299T1431 1040T1531 682Q1531 522 1463
381ZM369 561T425 465T579 314T792 259Q909 259 1005 313T1158 464T1215 681Q1215 802 1159 898T1006 1049T792 1104Q675 1104 578 1050T425 899T369 681Q369 561 425 465Z" />
<glyph unicode="R" glyph-name="R" horiz-adv-x="1284" d="M736 1360Q878 1360 990 1302T1164 1140T1227 902Q1227 765 1158 661T969 505L1259 0H896L658 455H597H456V0H139V1360H736ZM775 720T818 743T885 808T910 902Q910 949 885 989T817 1054T723 1078H456V720H723Q775
720 818 743Z" />
<glyph unicode="S" glyph-name="S" horiz-adv-x="1257" d="M436 -34T308 31T121 199T62 421H379Q379 335 445 284T632 232Q762 232 821 270T880 387Q880 433 850 464T761 516T607 560Q462 595 354 641T171 773T96 993Q96 1113 154 1203T331 1344T621 1394Q796
1394 915 1342T1094 1194T1154 966H837Q837 1031 785 1074T617 1118Q413 1118 413 991Q413 948 444 918T541 865T717 821Q944 775 1072 674T1201 386Q1201 253 1130 158T931 15T633 -34Q436 -34 308 31Z" />
<glyph unicode="T" glyph-name="T" horiz-adv-x="1150" d="M418 1078H37V1360H1113V1078H733V0H418V1078Z" />
<glyph unicode="U" glyph-name="U" horiz-adv-x="1431" d="M547 -31T411 37T196 231T118 525V1360H434V548Q434 464 467 398T563 294T716 256Q803 256 866 294T963 398T996 548V1360H1313V525Q1313 364 1239 238T1030 40T716 -31Q547 -31 411 37Z" />
<glyph unicode="V" glyph-name="V" horiz-adv-x="1432" d="M10 1361H344L713 416L718 417L1087 1361H1422L858 0H573L10 1361Z" />
<glyph unicode="W" glyph-name="W" horiz-adv-x="2045" d="M10 1361H344L578 560L609 426H614L637 563L855 1360H1189L1406 566L1433 426H1436L1471 575L1700 1361H2035L1599 0H1294L1023 928L751 0H446L10 1361Z" />
<glyph unicode="X" glyph-name="X" horiz-adv-x="1415" d="M509 714L61 1360H433L707 935L981 1360H1353L905 714L1403 0H1030L707 496L385 0H12L509 714Z" />
<glyph unicode="Y" glyph-name="Y" horiz-adv-x="1383" d="M532 514L10 1360H377L692 795L1003 1360H1373L848 516L849 0H532V514Z" />
<glyph unicode="Z" glyph-name="Z" horiz-adv-x="1265" d="M62 234L756 1096H104V1360H1175L1174 1131L479 265H1198V0H66L62 234Z" />
<glyph unicode="[" glyph-name="bracketleft" horiz-adv-x="733" d="M139 1500H705V1252H455V-103H705V-351H139V1500Z" />
<glyph unicode="\" glyph-name="backslash" horiz-adv-x="892" d="M956 -209L618 -208L-35 1425H301L956 -209Z" />
<glyph unicode="]" glyph-name="bracketright" horiz-adv-x="733" d="M594 -351H28V-103H278V1252H28V1500H594V-351Z" />
<glyph unicode="^" glyph-name="asciicircum" horiz-adv-x="1017" d="M470 1435H605L970 775L673 769L539 1092L402 769L107 775L470 1435Z" />
<glyph unicode="_" glyph-name="underscore" horiz-adv-x="1008" d="M0 -70H1008V-321H0V-70Z" />
<glyph unicode="`" glyph-name="grave" horiz-adv-x="557" d="M68 1391L293 1470L442 1152H241L68 1391Z" />
<glyph unicode="a" glyph-name="a" horiz-adv-x="1284" d="M400 -34T291 40T121 240T59 518Q59 668 121 794T291 994T534 1069Q649 1069 737 1026T873 903V1036H1165V0H872V131Q825 52 737 9T536 -34Q400 -34 291 40ZM680 250T737 285T827 381T860 518Q860 591
827 652T737 750T612 786Q543 786 487 754T397 660T364 518Q364 433 397 373T487 281T611 250Q680 250 737 285Z" />
<glyph unicode="b" glyph-name="b" horiz-adv-x="1316" d="M633 -34T549 10T413 131V0H119V1409H427V1043L420 912Q470 986 552 1027T726 1068Q871 1068 984 994T1161 794T1225 518Q1225 367 1162 241T985 40T731 -34Q633 -34 549 10ZM740 249T796 280T887 373T921
518Q921 599 888 660T797 753T671 786Q603 786 547 751T457 654T424 518Q424 440 458 379T549 283T673 249Q740 249 796 280Z" />
<glyph unicode="c" glyph-name="c" horiz-adv-x="1177" d="M445 -33T321 41T128 241T59 518Q59 668 128 794T321 994T601 1069Q739 1069 850 1014T1033 863T1133 645H821Q794 716 736 750T602 784Q539 784 485 753T397 661T364 518Q364 435 397 374T485 282T602
250Q680 250 737 287T821 408H1133Q1108 280 1036 180T852 24T601 -33Q445 -33 321 41Z" />
<glyph unicode="d" glyph-name="d" horiz-adv-x="1283" d="M409 -34T296 40T121 240T59 518Q59 670 120 795T295 995T556 1069Q657 1069 738 1022T863 912L857 1026V1409H1163V0H871V131Q822 61 742 14T553 -34Q409 -34 296 40ZM679 249T736 284T826 381T859 518Q859
592 826 653T736 750T610 786Q540 786 483 752T394 657T362 518Q362 442 393 381T480 284T610 249Q679 249 736 284Z" />
<glyph unicode="e" glyph-name="e" horiz-adv-x="1185" d="M1137 489T1131 441H367Q385 339 447 286T600 232Q744 232 785 338H1115Q1091 242 1022 157T846 20T606 -33Q448 -33 324 41T129 241T59 518Q59 669 128 795T323 995T606 1069Q764 1069 884 996T1071
799T1137 526Q1137 489 1131 441ZM822 649Q817 696 787 734T710 794T607 816Q530 816 468 775T379 649H822Z" />
<glyph unicode="f" glyph-name="f" horiz-adv-x="777" d="M15 774V1036H207V1082Q207 1165 240 1243T348 1373T544 1425H766V1171H625Q571 1171 543 1138T514 1059V1036H763V774H514V0H207V774H15Z" />
<glyph unicode="g" glyph-name="g" horiz-adv-x="1284" d="M442 -396T328 -340T158 -192T101 7H390Q407 -67 457 -103T613 -139Q744 -139 808 -74T872 100V184Q823 102 742 67T552 32Q408 32 296 100T121 284T59 541Q59 681 120 802T292 996T542 1069Q661 1069
746 1020T873 903V1036H1165V101Q1165 -46 1098 -158T907 -333T613 -396Q442 -396 328 -340ZM680 296T737 329T827 419T860 542Q860 606 827 662T738 752T612 786Q541 786 485 756T397 671T364 542Q364 470 396 414T485 327T611 296Q680 296 737 329Z" />
<glyph unicode="h" glyph-name="h" horiz-adv-x="1268" d="M427 1409V1039L420 919Q471 991 552 1030T738 1069Q945 1069 1048 936T1152 556V0H844V549Q844 673 793 730T651 787Q592 787 541 753T458 656T427 514V0H119V1409H427Z" />
<glyph unicode="i" glyph-name="i" horiz-adv-x="547" d="M216 1158T175 1180T113 1240T91 1324Q91 1370 112 1408T175 1468T273 1491Q331 1491 372 1469T435 1408T457 1324Q457 1252 408 1205T272 1158Q216 1158 175 1180ZM119 1036H427V0H119V1036Z" />
<glyph unicode="j" glyph-name="j" horiz-adv-x="560" d="M234 1158T193 1180T131 1240T109 1324Q109 1370 130 1408T193 1468T291 1491Q349 1491 390 1469T453 1408T475 1324Q475 1252 426 1205T290 1158Q234 1158 193 1180ZM19 -102Q71 -102 101 -66T132 32V1036H440V53Q440
-158 346 -256T54 -354H-100V-102H19Z" />
<glyph unicode="k" glyph-name="k" horiz-adv-x="1136" d="M784 0L562 429L427 285V0H119V1409H427V610L718 1036H1092L785 632L1128 0H784Z" />
<glyph unicode="l" glyph-name="l" horiz-adv-x="547" d="M119 1409H427V0H119V1409Z" />
<glyph unicode="m" glyph-name="m" horiz-adv-x="1895" d="M1587 1069T1683 936T1779 556V0H1475V549Q1475 672 1429 729T1302 787Q1249 787 1203 753T1129 656T1101 514V0H797V549Q797 673 752 730T624 787Q571 787 525 753T451 656T423 514V0H119V1036H407L411
911Q452 981 533 1025T716 1069Q837 1069 919 1016T1047 861Q1116 969 1202 1019T1394 1069Q1587 1069 1683 936Z" />
<glyph unicode="n" glyph-name="n" horiz-adv-x="1268" d="M413 1036V911Q458 982 545 1025T738 1069Q945 1069 1048 936T1152 556V0H844V549Q844 673 793 730T651 787Q590 787 539 757T458 665T427 514V0H119V1036H413Z" />
<glyph unicode="o" glyph-name="o" horiz-adv-x="1224" d="M451 -33T326 40T130 240T59 518Q59 669 129 795T325 995T610 1069Q770 1069 896 995T1094 795T1165 518Q1165 366 1094 240T897 41T609 -33Q451 -33 326 40ZM684 251T740 285T828 379T860 518Q860 596
829 656T741 751T612 785Q540 785 484 751T396 657T364 518Q364 440 395 380T483 285T612 251Q684 251 740 285Z" />
<glyph unicode="p" glyph-name="p" horiz-adv-x="1284" d="M412 1036V905Q468 984 551 1026T726 1068Q871 1068 984 994T1161 794T1225 518Q1225 367 1162 241T985 40T731 -34Q634 -34 553 9T421 123L427 -2V-354H119V1036H412ZM740 249T796 280T887 373T921 518Q921
599 888 660T797 753T671 786Q603 786 547 751T457 654T424 518Q424 440 458 379T549 283T673 249Q740 249 796 280Z" />
<glyph unicode="q" glyph-name="q" horiz-adv-x="1283" d="M861 124Q820 60 741 13T553 -34Q409 -34 296 40T121 240T59 518Q59 670 120 795T295 995T556 1069Q658 1069 739 1022T871 906V1036H1163V-354H854V12L861 124ZM679 249T736 284T826 381T859 518Q859
592 826 653T736 750T610 786Q540 786 483 752T394 657T362 518Q362 442 393 381T480 284T610 249Q679 249 736 284Z" />
<glyph unicode="r" glyph-name="r" horiz-adv-x="805" d="M414 1036V890Q494 1036 659 1036H779V774H676Q559 774 494 697T428 477V0H119V1036H414Z" />
<glyph unicode="s" glyph-name="s" horiz-adv-x="1018" d="M367 -34T264 19T111 157T61 340L356 338Q360 278 400 243T520 208Q655 208 655 302Q655 346 614 366T476 400Q305 421 202 500T98 734Q98 839 146 914T286 1029T507 1069Q634 1069 733 1025T887 902T942
717L641 719Q638 765 605 792T508 820Q453 820 427 798T400 741Q400 710 413 694T464 667T587 644Q713 626 796 591T925 490T970 320Q970 203 911 124T750 5T518 -34Q367 -34 264 19Z" />
<glyph unicode="t" glyph-name="t" horiz-adv-x="851" d="M418 0T315 82T211 404V774H12V1036H211V1335L519 1337V1036H799V774H519V390Q519 319 551 287T636 254H799V0H570Q418 0 315 82Z" />
<glyph unicode="u" glyph-name="u" horiz-adv-x="1209" d="M458 -33T346 19T169 186T104 483V1036H410V493Q410 251 604 251Q799 251 799 493V1036H1104V483Q1104 302 1039 187T862 19T604 -33Q458 -33 346 19Z" />
<glyph unicode="v" glyph-name="v" horiz-adv-x="1112" d="M7 1036H333L527 507L556 385L583 507L777 1036H1105L697 0H414L7 1036Z" />
<glyph unicode="w" glyph-name="w" horiz-adv-x="1616" d="M7 1036H337L501 465L517 402H521L540 465L699 1036H923L1076 467L1094 402H1098L1120 470L1286 1036H1609L1267 0H985L807 573H805L624 0H349L7 1036Z" />
<glyph unicode="x" glyph-name="x" horiz-adv-x="1111" d="M340 540L31 1036H390L555 741H556L720 1036H1077L770 540L1098 0H735L552 327H551L368 0H13L340 540Z" />
<glyph unicode="y" glyph-name="y" horiz-adv-x="1120" d="M219 -102Q289 -102 325 -73T387 25L401 64L17 1035H341L537 507L566 385L594 507L786 1034L1114 1036L716 18Q654 -141 587 -221T437 -327T225 -354H46V-102H219Z" />
<glyph unicode="z" glyph-name="z" horiz-adv-x="1023" d="M57 186L534 778H82V1036H954V847L482 258H978V0H57V186Z" />
<glyph unicode="{" glyph-name="braceleft" horiz-adv-x="778" d="M473 -380T352 -283T230 22V208Q230 298 217 345T166 416T55 447V683Q127 691 164 714T215 786T230 922V1108Q230 1316 351 1412T726 1504L727 1264Q649 1260 612 1248T560 1200T545 1090V862Q545
751 509 680T401 565Q475 526 510 446T545 268V59Q545 -26 559 -64T609 -116T727 -134L726 -375Q473 -380 352 -283Z" />
<glyph unicode="|" glyph-name="bar" horiz-adv-x="579" d="M139 1629H439V-379H139V1629Z" />
<glyph unicode="}" glyph-name="braceright" horiz-adv-x="779" d="M51 -134Q132 -130 168 -117T219 -65T234 59V268Q234 365 268 445T377 565Q306 609 270 680T234 862V1090Q234 1165 219 1200T166 1247T51 1264L53 1504Q305 1509 426 1413T548 1108V922Q548
833 562 786T614 715T724 683V447Q650 440 613 417T562 346T548 208V22Q548 -186 427 -283T53 -375L51 -134Z" />
<glyph unicode="~" glyph-name="asciitilde" horiz-adv-x="1206" d="M114 695Q167 738 238 768T384 799Q442 799 495 784T625 737Q689 711 731 698T814 685Q887 685 942 706T1052 766L1092 542Q1043 499 970 468T819 437Q762 437 707 453T575 501Q512 527 470
540T389 553Q260 553 154 470L114 695Z" />
</font>
</defs>
</svg>
