<?xml version="1.0" standalone="no"?> <!DOCTYPE svg PUBLIC "-//W3C//DTD SVG 1.0//EN" "http://www.w3.org/TR/2001/REC-SVG-20010904/DTD/svg10.dtd" > <svg xmlns="http://www.w3.org/2000/svg" width="100%" height="100%">
<defs >
<font horiz-adv-x="1294" ><font-face
    font-family="Codec Pro"
    units-per-em="2048"
    panose-1="0 0 5 0 0 0 0 0 0 0"
    ascent="1408"
    descent="-348"
    alphabetic="0" />
<missing-glyph horiz-adv-x="457" />
<glyph unicode=" " glyph-name="space" horiz-adv-x="506" />
<glyph unicode="!" glyph-name="exclam" horiz-adv-x="595" d="M207 673V1360H384V672L360 391H231L207 673ZM248 -20T217 11T185 86Q185 131 216 162T297 194Q346 194 378 163T410 86Q410 41 379 11T297 -20Q248 -20 217 11Z" />
<glyph unicode="&quot;" glyph-name="quotedbl" horiz-adv-x="718" d="M130 1360H294L277 922H144L130 1360ZM436 1360H600L583 922H450L436 1360Z" />
<glyph unicode="#" glyph-name="numbersign" horiz-adv-x="1242" d="M290 349H87L90 480H311L369 805H155L158 934H390L465 1352H620L546 934H778L852 1352H1006L933 934H1127L1125 805H912L854 480H1059L1057 349H833L773 8H618L677 349H446L386 8H230L290 349ZM699
480L757 805H525L467 480H699Z" />
<glyph unicode="$" glyph-name="dollar" horiz-adv-x="1217" d="M1147 263T1095 178T944 41T708 -24V-211H544V-27Q390 -16 284 46T127 201T75 394H252Q252 321 295 259T419 160T608 123Q783 123 875 187T968 376Q968 487 876 542T613 624Q473 647 365 686T184
805T110 1012Q110 1112 155 1193T297 1327T544 1388V1583H708V1384Q832 1368 918 1317T1049 1185T1093 1003H915Q915 1071 879 1123T772 1205T601 1234Q431 1234 359 1171T287 1011Q287 908 381 854T668 774Q879 740 1013 652T1147 376Q1147 263 1095 178Z" />
<glyph unicode="%" glyph-name="percent" horiz-adv-x="1728" d="M344 727T266 769T143 886T98 1052Q98 1143 142 1218T265 1336T439 1379Q535 1379 613 1336T737 1218T782 1051Q782 960 737 886T614 770T439 727Q344 727 266 769ZM1214 1359H1377L543 -1H383L1214
1359ZM496 850T540 876T610 948T636 1050Q636 1109 611 1156T540 1229T439 1256Q383 1256 339 1230T269 1157T244 1052Q244 995 269 949T339 876T440 850Q496 850 540 876ZM1176 -16T1098 26T975 143T930 308Q930 400 975 475T1098 593T1273 636Q1368 636 1446
593T1569 475T1614 308Q1614 217 1569 143T1446 27T1272 -16Q1176 -16 1098 26ZM1329 107T1374 133T1444 204T1469 307Q1469 365 1444 412T1373 486T1272 513Q1217 513 1173 487T1103 414T1077 309Q1077 252 1102 206T1172 134T1273 107Q1329 107 1374 133Z" />
<glyph unicode="&amp;" glyph-name="ampersand" horiz-adv-x="1455" d="M999 148Q904 65 792 19T564 -27Q433 -27 327 22T159 161T98 362Q98 460 145 535T263 661T433 768Q363 830 313 912T262 1078Q262 1168 307 1239T435 1350T626 1390Q732 1390 812 1354T936
1249T980 1089Q980 970 901 889T684 736L1018 368Q1118 502 1137 657L1297 656Q1286 545 1240 442T1120 251L1192 170Q1270 84 1344 0H1135L999 148ZM643 870T689 897T771 972T808 1086Q808 1159 760 1205T632 1251Q569 1251 525 1226T458 1158T435 1064Q435 1005
471 950T568 834Q643 870 689 897ZM653 122T740 158T898 260L532 663Q453 622 400 586T309 494T271 366Q271 294 309 239T412 153T559 122Q653 122 740 158Z" />
<glyph unicode="&apos;" glyph-name="quotesingle" horiz-adv-x="412" d="M130 1360H294L277 922H144L130 1360Z" />
<glyph unicode="(" glyph-name="parenleft" horiz-adv-x="694" d="M139 -28T139 554Q139 826 216 1057T472 1472L653 1473Q548 1372 472 1223T356 900T316 555V534Q318 364 357 198T472 -113T653 -362H474Q139 -28 139 554Z" />
<glyph unicode=")" glyph-name="parenright" horiz-adv-x="695" d="M41 -362Q147 -258 222 -113T336 198T378 534V555Q378 727 338 900T223 1222T42 1473L222 1472Q401 1288 478 1057T555 554Q555 -28 220 -362H41Z" />
<glyph unicode="*" glyph-name="asterisk" horiz-adv-x="844" d="M376 1171L370 1403H481L475 1173L670 1292L725 1197L524 1088L725 978L670 884L475 1003L480 775H370L376 1005L180 885L125 979L326 1087L125 1198L181 1292L376 1171Z" />
<glyph unicode="+" glyph-name="plus" horiz-adv-x="1157" d="M504 547L118 548V689H504V1082H650L651 689H1039V547H651V152H504V547Z" />
<glyph unicode="," glyph-name="comma" horiz-adv-x="484" d="M205 178H376L221 -181H92L205 178Z" />
<glyph unicode="-" glyph-name="hyphen" horiz-adv-x="883" d="M118 617H765V473H118V617Z" />
<glyph unicode="." glyph-name="period" horiz-adv-x="517" d="M209 -21T177 10T145 86Q145 130 177 161T258 193Q307 193 339 162T371 86Q371 41 339 10T258 -21Q209 -21 177 10Z" />
<glyph unicode="/" glyph-name="slash" horiz-adv-x="809" d="M613 1426H800L145 -208H-44L613 1426Z" />
<glyph unicode="0" glyph-name="zero" horiz-adv-x="1298" d="M467 -29T339 65T146 319T81 674Q81 874 149 1037T345 1294T648 1389Q839 1389 967 1292T1156 1033T1217 679Q1217 482 1151 321T957 66T649 -29Q467 -29 339 65ZM769 136T857 206T993 399T1040 679Q1040
833 995 956T861 1152T647 1225Q531 1225 443 1155T307 959T258 675Q258 520 305 398T440 206T649 136Q769 136 857 206Z" />
<glyph unicode="1" glyph-name="one" horiz-adv-x="660" d="M297 1191L36 1086V1244L325 1361H475V0H297V1191Z" />
<glyph unicode="2" glyph-name="two" horiz-adv-x="1096" d="M548 538Q646 626 702 687T791 811T824 945Q824 1022 788 1083T689 1179T550 1214Q473 1214 407 1178T302 1069T262 888H86Q86 1021 140 1133T299 1311T545 1378Q679 1378 782 1321T943 1166T1001 945Q1001
856 968 779T876 633T728 486L338 139L424 154H1022V0H74V107L548 538Z" />
<glyph unicode="3" glyph-name="three" horiz-adv-x="1088" d="M425 -29T316 19T137 171T66 437H242Q244 329 291 261T407 164T552 134Q632 134 702 173T813 281T855 434Q855 516 814 580T696 681T518 718H376V809L694 1208L698 1214H134V1360H913V1263L582 862L570
847Q787 835 910 731T1033 430Q1033 303 970 198T796 32T548 -29Q425 -29 316 19Z" />
<glyph unicode="4" glyph-name="four" horiz-adv-x="1186" d="M738 312H24L13 440L723 1367H915V460H1150V312H915V0H738V312ZM738 458V1138L208 457L738 458Z" />
<glyph unicode="5" glyph-name="five" horiz-adv-x="1160" d="M478 -29T374 12T196 148T103 392H277Q294 301 345 244T461 160T591 134Q676 134 746 174T857 283T898 438Q898 525 855 588T733 685T546 719L272 720L189 786L266 1361H982V1214H416L368 850H588Q737
850 847 800T1016 656T1075 437Q1075 312 1014 205T843 35T591 -29Q478 -29 374 12Z" />
<glyph unicode="6" glyph-name="six" horiz-adv-x="1113" d="M428 -27T320 33T150 196T88 426Q88 493 106 554T161 684T269 862L589 1360H793L435 815Q518 867 608 867Q723 867 823 809T982 650T1042 426Q1042 300 981 197T811 33T565 -27Q428 -27 320 33ZM647
136T713 173T816 276T854 424Q854 505 817 571T713 676T566 715Q476 715 410 670T309 557T275 424Q275 342 313 277T417 174T566 136Q647 136 713 173Z" />
<glyph unicode="7" glyph-name="seven" horiz-adv-x="1032" d="M766 1213H59V1360H976V1264L363 0H174L766 1213Z" />
<glyph unicode="8" glyph-name="eight" horiz-adv-x="1125" d="M420 -29T309 24T136 172T74 384Q74 474 110 549T209 676T347 750Q291 769 246 811T176 912T150 1033Q150 1138 205 1219T354 1344T563 1389Q678 1389 772 1346T920 1222T974 1037Q974 973 948 914T877
811T777 750Q854 730 916 679T1015 551T1051 384Q1051 267 989 173T816 25T563 -29Q420 -29 309 24ZM630 816T684 844T770 922T801 1029Q801 1087 770 1136T684 1214T563 1243Q496 1243 441 1214T354 1136T322 1029Q322 971 353 922T438 845T562 816Q630 816 684
844ZM648 119T720 154T835 252T878 390Q878 468 836 532T721 632T562 669Q476 669 404 633T289 532T246 390Q246 314 288 252T403 155T562 119Q648 119 720 154Z" />
<glyph unicode="9" glyph-name="nine" horiz-adv-x="1113" d="M685 1387T793 1327T963 1164T1025 934Q1025 867 1007 806T952 676T844 498L524 0H320L678 545Q595 493 505 493Q390 493 290 551T131 710T71 934Q71 1060 132 1163T302 1327T548 1387Q685 1387 793
1327ZM466 1224T400 1187T297 1084T259 936Q259 855 296 789T400 684T547 645Q637 645 703 690T804 803T838 936Q838 1018 800 1083T696 1186T547 1224Q466 1224 400 1187Z" />
<glyph unicode=":" glyph-name="colon" horiz-adv-x="517" d="M209 834T177 865T145 941Q145 985 177 1016T258 1048Q307 1048 339 1017T371 941Q371 896 339 865T258 834Q209 834 177 865ZM209 226T177 257T145 333Q145 377 177 408T258 440Q307 440 339 409T371
333Q371 288 339 257T258 226Q209 226 177 257Z" />
<glyph unicode=";" glyph-name="semicolon" horiz-adv-x="497" d="M205 178H376L221 -181H92L205 178ZM218 833T186 864T154 940Q154 984 186 1015T267 1047Q316 1047 348 1016T380 940Q380 895 348 864T267 833Q218 833 186 864Z" />
<glyph unicode="&lt;" glyph-name="less" horiz-adv-x="1225" d="M166 495V609L992 997V833L371 551L992 271V107L166 495Z" />
<glyph unicode="=" glyph-name="equal" horiz-adv-x="1157" d="M118 856L1039 855V713L118 714V856ZM118 387H1039V245H118V387Z" />
<glyph unicode="&gt;" glyph-name="greater" horiz-adv-x="1061" d="M118 237L739 517L118 799V963L943 575V461L118 72V237Z" />
<glyph unicode="?" glyph-name="question" horiz-adv-x="941" d="M339 548T387 624T520 777L554 807Q607 854 637 884T687 950T707 1022Q707 1118 641 1174T451 1230Q332 1230 265 1172T198 1009H24Q24 1120 74 1206T221 1341T456 1390Q580 1390 676 1345T826
1219T880 1031Q880 952 847 889T768 781T645 674Q574 617 539 564T504 447V392H339V451Q339 548 387 624ZM380 -21T348 10T316 86Q316 131 348 162T429 194Q478 194 510 163T543 86Q543 41 511 10T429 -21Q380 -21 348 10Z" />
<glyph unicode="@" glyph-name="at" horiz-adv-x="1860" d="M680 -344T482 -236T183 59T81 483Q81 719 197 908T515 1205T960 1313Q1189 1313 1376 1221T1671 965T1779 591Q1779 420 1718 296T1553 108T1323 43Q1259 43 1207 66T1125 134T1101 243Q1069 194 1015
158T897 102T778 82Q760 82 751 83Q681 92 626 136T540 254T509 418Q509 543 555 642T679 801T848 870Q894 874 950 857T1056 806T1128 729L1146 842L1314 841L1233 331Q1229 308 1229 286Q1229 228 1257 206T1335 183Q1404 183 1467 232T1569 374T1609 589Q1609
762 1525 894T1292 1098T958 1170Q763 1170 601 1081T343 834T248 483Q248 306 318 162T519 -75T825 -192Q888 -201 955 -201L1381 -199V-343Q1275 -343 1170 -343T958 -344Q680 -344 482 -236ZM877 209T931 239T1027 316T1075 406L1110 616Q1083 658 1046 685T972
726T908 737Q847 733 794 693T707 583T673 419Q673 361 693 313T749 237T832 209Q877 209 931 239Z" />
<glyph unicode="A" glyph-name="A" horiz-adv-x="1347" d="M1146 0L1017 308H330L201 0H13L589 1360H759L1334 0H1146ZM393 458H954L680 1111L675 1134H673L667 1111L393 458Z" />
<glyph unicode="B" glyph-name="B" horiz-adv-x="1313" d="M766 1360Q878 1360 966 1315T1104 1189T1154 1002Q1154 941 1131 884T1066 784T974 719Q1046 698 1105 649T1198 531T1233 384Q1233 266 1176 179T1025 46T823 0H185V1360H766ZM818 770T867 799T946
878T975 989Q975 1049 946 1098T868 1177T759 1206H364V770H758Q818 770 867 799ZM876 156T931 187T1019 274T1051 397Q1051 461 1019 515T932 601T811 633H364V156H809Q876 156 931 187Z" />
<glyph unicode="C" glyph-name="C" horiz-adv-x="1509" d="M594 -27T432 67T175 324T81 681Q81 876 175 1038T431 1295T790 1390Q938 1390 1071 1334T1299 1167T1427 898H1247Q1202 1059 1079 1143T785 1227Q638 1227 518 1157T328 962T258 681Q258 524 327 400T517
207T785 137Q954 137 1077 221T1246 465H1427Q1394 306 1300 195T1072 29T790 -27Q594 -27 432 67Z" />
<glyph unicode="D" glyph-name="D" horiz-adv-x="1481" d="M682 1360Q895 1360 1057 1275T1309 1036T1399 681Q1399 479 1310 325T1059 85T685 0H185V1360H682ZM846 160T967 223T1154 403T1220 677Q1220 834 1155 953T967 1137T677 1202H359V160H681Q846 160 967 223Z" />
<glyph unicode="E" glyph-name="E" horiz-adv-x="1170" d="M185 1360H1089V1199H362V768H994V616H362V160H1098V0H185V1360Z" />
<glyph unicode="F" glyph-name="F" horiz-adv-x="1150" d="M185 1360H1089V1199H362V721H994V570H362V0H185V1360Z" />
<glyph unicode="G" glyph-name="G" horiz-adv-x="1571" d="M600 -26T437 68T178 325T82 681Q82 876 177 1038T436 1295T796 1390Q942 1390 1078 1335T1312 1176T1445 931H1265Q1208 1070 1083 1148T792 1227Q645 1227 523 1157T330 962T259 681Q259 524 330 400T523
207T792 137Q941 137 1050 192T1222 341T1305 556H786V716H1489Q1490 508 1408 339T1168 72T796 -26Q600 -26 437 68Z" />
<glyph unicode="H" glyph-name="H" horiz-adv-x="1511" d="M185 1360H362V761H1148V1360H1326V0H1148V602H362V0H185V1360Z" />
<glyph unicode="I" glyph-name="I" horiz-adv-x="547" d="M185 1360H362V0H185V1360Z" />
<glyph unicode="J" glyph-name="J" horiz-adv-x="867" d="M230 160Q320 160 389 198T495 308T533 475V1360H708V466Q708 324 647 219T478 57T229 0H37V160H230Z" />
<glyph unicode="K" glyph-name="K" horiz-adv-x="1324" d="M732 760L1302 0H1090L616 630L362 318V0H185V1360H362V554L1017 1360H1226L732 760Z" />
<glyph unicode="L" glyph-name="L" horiz-adv-x="1063" d="M185 1360H362V160H1023V0H185V1360Z" />
<glyph unicode="M" glyph-name="M" horiz-adv-x="1712" d="M185 1360H338L855 674H856L1372 1360H1527V0H1350V1074L880 447H829L362 1075V0H185V1360Z" />
<glyph unicode="N" glyph-name="N" horiz-adv-x="1534" d="M1173 1360H1349V0H1199L362 1063V0H185V1360H334L1172 294H1173V1360Z" />
<glyph unicode="O" glyph-name="O" horiz-adv-x="1616" d="M610 -27T443 68T179 325T81 681Q81 876 178 1038T442 1295T807 1390Q1005 1390 1172 1296T1437 1039T1535 681Q1535 488 1437 326T1172 68T807 -27Q610 -27 443 68ZM958 137T1084 208T1284 404T1358
681Q1358 833 1284 958T1084 1155T807 1227Q657 1227 531 1155T332 958T258 681Q258 529 331 405T531 209T807 137Q958 137 1084 208Z" />
<glyph unicode="P" glyph-name="P" horiz-adv-x="1236" d="M743 1360Q873 1360 976 1303T1137 1144T1195 916Q1195 785 1138 683T978 523T747 465H362V0H185V1360H743ZM817 625T881 663T981 767T1018 915Q1018 992 981 1058T880 1162T737 1201H362V625H739Q817
625 881 663Z" />
<glyph unicode="Q" glyph-name="Q" horiz-adv-x="1632" d="M1535 510T1458 362T1246 115L1473 -194L1310 -289L1095 30Q958 -27 807 -27Q610 -27 443 68T179 325T81 681Q81 876 178 1038T442 1295T807 1390Q1005 1390 1172 1296T1437 1039T1535 681Q1535 510 1458
362ZM258 529T331 405T531 209T807 137Q958 137 1084 208T1284 404T1358 681Q1358 833 1284 958T1084 1155T807 1227Q657 1227 531 1155T332 958T258 681Q258 529 331 405Z" />
<glyph unicode="R" glyph-name="R" horiz-adv-x="1306" d="M763 1360Q894 1360 996 1307T1156 1156T1214 933Q1214 835 1177 754T1073 618T916 538L1244 0H1040L738 512Q723 511 694 511H362V0H185V1360H763ZM838 662T901 696T1001 792T1037 932Q1037 1008 1000
1069T899 1166T756 1201H362V662H759Q838 662 901 696Z" />
<glyph unicode="S" glyph-name="S" horiz-adv-x="1217" d="M434 -29T314 31T134 189T75 394H252Q252 321 295 259T419 160T608 123Q783 123 875 187T968 376Q968 487 876 542T613 624Q473 647 365 686T184 805T110 1012Q110 1119 161 1204T323 1339T603 1390Q759
1390 869 1341T1036 1205T1093 1003H915Q915 1071 879 1123T772 1205T601 1234Q431 1234 359 1171T287 1011Q287 908 381 854T668 774Q879 740 1013 652T1147 376Q1147 250 1083 159T897 19T609 -29Q434 -29 314 31Z" />
<glyph unicode="T" glyph-name="T" horiz-adv-x="1137" d="M479 1201H49V1360H1087V1201H656V0H479V1201Z" />
<glyph unicode="U" glyph-name="U" horiz-adv-x="1444" d="M564 -28T436 41T233 236T159 527V1361H335V540Q335 428 381 336T514 190T722 136Q840 136 927 189T1061 334T1108 538V1361H1285V527Q1285 365 1213 239T1013 43T722 -28Q564 -28 436 41Z" />
<glyph unicode="V" glyph-name="V" horiz-adv-x="1362" d="M20 1360H208L680 229L683 232L1153 1360H1341L763 0H599L20 1360Z" />
<glyph unicode="W" glyph-name="W" horiz-adv-x="2030" d="M20 1360H208L554 316L574 236H578L594 318L921 1360H1108L1435 319L1453 236H1456L1477 324L1822 1360H2009L1547 0H1373L1015 1115L656 0H483L20 1360Z" />
<glyph unicode="X" glyph-name="X" horiz-adv-x="1321" d="M550 707L64 1360H274L660 832L1047 1360H1257L771 707L1292 0H1081L660 583L240 0H29L550 707Z" />
<glyph unicode="Y" glyph-name="Y" horiz-adv-x="1317" d="M570 521L20 1360H229L658 680H659L1086 1360H1296L746 522L747 0H570V521Z" />
<glyph unicode="Z" glyph-name="Z" horiz-adv-x="1247" d="M74 136L910 1209H117V1360H1143V1227L306 151H1181V0H76L74 136Z" />
<glyph unicode="[" glyph-name="bracketleft" horiz-adv-x="684" d="M185 1471H647V1328H360V-205H647V-348H185V1471Z" />
<glyph unicode="\" glyph-name="backslash" horiz-adv-x="809" d="M853 -208H664L9 1426H196L853 -208Z" />
<glyph unicode="]" glyph-name="bracketright" horiz-adv-x="684" d="M499 -348H37V-205H324V1328H37V1471H499V-348Z" />
<glyph unicode="^" glyph-name="asciicircum" horiz-adv-x="926" d="M441 1430H508L839 815L674 804L475 1217L275 804L111 815L441 1430Z" />
<glyph unicode="_" glyph-name="underscore" horiz-adv-x="932" d="M0 -115H932V-260H0V-115Z" />
<glyph unicode="`" glyph-name="grave" horiz-adv-x="521" d="M102 1387L232 1432L386 1149H267L102 1387Z" />
<glyph unicode="a" glyph-name="a" horiz-adv-x="1306" d="M435 -29T322 43T144 238T79 510Q79 657 144 780T322 976T571 1048Q708 1048 816 982T976 801V1020H1141V0H976V217Q924 103 816 37T572 -29Q435 -29 322 43ZM709 132T791 182T922 318T970 510Q970 614
922 700T791 837T611 887Q512 887 430 839T299 704T250 510Q250 400 298 314T429 180T610 132Q709 132 791 182Z" />
<glyph unicode="b" glyph-name="b" horiz-adv-x="1329" d="M598 -29T492 37T330 217V0H165V1408H337V945L334 805Q368 875 426 930T560 1016T723 1048Q864 1048 979 976T1160 781T1226 510Q1226 362 1160 239T980 43T725 -29Q598 -29 492 37ZM793 131T875 179T1006
313T1055 510Q1055 618 1007 704T877 839T695 888Q597 888 515 838T384 701T336 510Q336 404 384 317T515 181T695 131Q793 131 875 179Z" />
<glyph unicode="c" glyph-name="c" horiz-adv-x="1153" d="M455 -29T336 43T148 239T79 510Q79 657 148 780T336 976T600 1049Q719 1049 819 1003T988 874T1089 686H912Q873 783 790 835T601 887Q511 887 431 841T301 708T251 510Q251 397 300 311T430 179T601
132Q707 132 790 186T912 342H1088Q1059 232 990 148T820 18T600 -29Q455 -29 336 43Z" />
<glyph unicode="d" glyph-name="d" horiz-adv-x="1305" d="M440 -29T325 43T145 238T79 510Q79 658 144 781T324 977T582 1049Q673 1049 751 1015T885 926T972 805L968 904V1408H1140V0H975V217Q942 147 884 91T749 3T581 -29Q440 -29 325 43ZM708 131T790 181T921
318T970 510Q970 614 922 701T791 838T609 888Q510 888 428 839T298 703T250 510Q250 404 297 318T426 181T609 131Q708 131 790 181Z" />
<glyph unicode="e" glyph-name="e" horiz-adv-x="1165" d="M1102 521T1099 465H253Q263 365 312 290T435 173T594 132Q697 132 770 176T877 307H1070Q1041 213 973 137T808 16T598 -28Q453 -28 334 44T147 239T79 510Q79 657 147 781T334 977T598 1049Q741 1049
856 979T1037 790T1102 535Q1102 521 1099 465ZM926 617Q921 689 875 751T755 850T595 887Q517 887 448 856T330 763T261 617H926Z" />
<glyph unicode="f" glyph-name="f" horiz-adv-x="722" d="M22 870V1020H240V1092Q240 1179 273 1252T373 1371T540 1416H711V1271H580Q503 1271 458 1217T413 1078V1020H703V870H413V0H240V870H22Z" />
<glyph unicode="g" glyph-name="g" horiz-adv-x="1306" d="M449 -384T341 -331T181 -192T122 -6H285Q302 -109 379 -173T612 -237Q738 -237 819 -186T938 -52T976 132V258Q923 144 818 82T580 19Q439 19 325 87T145 273T79 529Q79 667 144 786T322 977T575 1048Q669
1048 749 1015T887 926T976 801V1020H1141V137Q1141 -9 1082 -127T904 -314T612 -384Q449 -384 341 -331ZM708 171T790 219T921 350T970 529Q970 625 922 707T792 838T611 887Q512 887 429 840T298 712T250 529Q250 429 298 347T428 218T610 171Q708 171 790 219Z"
/>
<glyph unicode="h" glyph-name="h" horiz-adv-x="1272" d="M337 1408V935L334 826Q381 927 480 988T706 1049Q909 1049 1014 923T1119 553V0H947V550Q947 722 873 805T662 888Q577 888 502 843T382 718T337 536V0H165V1408H337Z" />
<glyph unicode="i" glyph-name="i" horiz-adv-x="502" d="M198 1219T166 1250T134 1329Q134 1375 166 1406T251 1438Q304 1438 336 1407T369 1329Q369 1282 337 1251T250 1219Q198 1219 166 1250ZM165 1020H337V0H165V1020Z" />
<glyph unicode="j" glyph-name="j" horiz-adv-x="513" d="M210 1219T178 1250T146 1329Q146 1375 178 1406T263 1438Q316 1438 348 1407T381 1329Q381 1282 349 1251T262 1219Q210 1219 178 1250ZM1 -206Q84 -206 129 -151T175 -7V1020H348V4Q348 -166 265 -258T19
-350H-104V-206H1Z" />
<glyph unicode="k" glyph-name="k" horiz-adv-x="1054" d="M843 0L528 498L337 287V0H165V1408H337V477L775 1020H986L654 611L1038 0H843Z" />
<glyph unicode="l" glyph-name="l" horiz-adv-x="502" d="M165 1410H337V0H165V1410Z" />
<glyph unicode="m" glyph-name="m" horiz-adv-x="1951" d="M1601 1049T1699 923T1798 553V0H1627V550Q1627 721 1559 804T1364 888Q1286 888 1218 843T1108 718T1066 536V0H896V550Q896 722 828 805T634 888Q556 888 487 843T377 718T335 536V0H165V1020H327L329
823Q355 887 407 938T529 1019T680 1049Q817 1049 906 983T1036 787Q1094 915 1192 982T1411 1049Q1601 1049 1699 923Z" />
<glyph unicode="n" glyph-name="n" horiz-adv-x="1272" d="M330 1020V823Q359 889 415 940T546 1020T706 1049Q909 1049 1014 923T1119 553V0H947V550Q947 722 873 805T662 888Q576 888 502 845T382 722T337 536V0H165V1020H330Z" />
<glyph unicode="o" glyph-name="o" horiz-adv-x="1220" d="M461 -29T340 43T149 238T79 510Q79 657 148 781T339 977T609 1049Q758 1049 880 977T1071 782T1141 510Q1141 362 1072 239T881 43T609 -29Q461 -29 340 43ZM711 133T793 182T922 317T969 510Q969 616
922 702T793 837T611 887Q511 887 429 838T299 702T251 510Q251 403 298 317T428 182T611 133Q711 133 793 182Z" />
<glyph unicode="p" glyph-name="p" horiz-adv-x="1306" d="M330 1020V802Q385 912 489 980T723 1048Q864 1048 979 976T1160 781T1226 510Q1226 362 1160 239T980 43T725 -29Q599 -29 494 36T334 213L337 98V-348H165V1020H330ZM793 131T875 179T1006 313T1055
510Q1055 618 1007 704T877 839T695 888Q597 888 515 838T384 701T336 510Q336 404 384 317T515 181T695 131Q793 131 875 179Z" />
<glyph unicode="q" glyph-name="q" horiz-adv-x="1305" d="M970 213Q939 145 883 90T749 3T581 -29Q440 -29 325 43T145 238T79 510Q79 658 144 781T324 977T582 1049Q673 1049 751 1015T885 924T975 802V1020H1140V-348H967V119L970 213ZM708 131T790 181T921
318T970 510Q970 614 922 701T791 838T609 888Q510 888 428 839T298 703T250 510Q250 404 297 318T426 181T609 131Q708 131 790 181Z" />
<glyph unicode="r" glyph-name="r" horiz-adv-x="776" d="M331 1020V792Q369 899 450 959T641 1020H740V869H650Q560 869 489 823T378 688T338 480V0H165V1020H331Z" />
<glyph unicode="s" glyph-name="s" horiz-adv-x="986" d="M369 -29T273 19T128 145T79 313L245 312Q246 256 277 210T367 138T507 111Q621 111 681 155T741 279Q741 334 712 366T628 416T484 449Q319 473 223 540T127 750Q127 835 168 903T292 1010T492 1049Q608
1049 697 1010T835 901T884 743H715Q711 817 652 861T492 905Q397 905 347 862T297 754Q297 705 319 675T393 625T542 589Q655 571 734 543T864 454T916 288Q916 186 865 115T721 7T505 -29Q369 -29 273 19Z" />
<glyph unicode="t" glyph-name="t" horiz-adv-x="804" d="M418 0T328 81T238 378V869H11V1020H238V1323L410 1324V1020H747V869H410V370Q410 241 460 194T593 146H747V0H559Q418 0 328 81Z" />
<glyph unicode="u" glyph-name="u" horiz-adv-x="1203" d="M463 -29T359 24T196 190T137 475V1020H308V480Q308 310 384 222T601 133Q743 133 818 221T894 480V1020H1066V475Q1066 304 1007 191T844 25T603 -29Q463 -29 359 24Z" />
<glyph unicode="v" glyph-name="v" horiz-adv-x="1018" d="M13 1020H196L484 300L509 209L533 300L821 1020H1005L590 0H427L13 1020Z" />
<glyph unicode="w" glyph-name="w" horiz-adv-x="1555" d="M13 1020H198L440 283L459 222H461L481 282L713 1020H845L1070 295L1093 222H1096L1123 298L1360 1020H1542L1191 0H1029L777 764H776L522 0H364L13 1020Z" />
<glyph unicode="x" glyph-name="x" horiz-adv-x="1026" d="M393 520L48 1020H252L512 636H513L774 1020H977L632 520L987 0H780L511 398L241 0H39L393 520Z" />
<glyph unicode="y" glyph-name="y" horiz-adv-x="1048" d="M220 -203Q280 -203 318 -182T382 -118T437 1L448 30L43 1020H226L515 299L539 209L565 298L852 1019L1035 1020L633 28Q572 -123 521 -201T400 -314T219 -348H51V-203H220Z" />
<glyph unicode="z" glyph-name="z" horiz-adv-x="967" d="M70 111L661 873H99V1020H894V907L306 147H918V0H70V111Z" />
<glyph unicode="{" glyph-name="braceleft" horiz-adv-x="707" d="M491 -358T409 -320T288 -197T250 34V221Q250 341 207 405T68 489V625Q165 649 207 713T250 893V1080Q250 1226 288 1311T408 1434T630 1474V1335Q538 1328 496 1305T440 1231T425 1071V863Q425
754 383 678T265 557Q343 514 384 434T425 251V52Q425 -62 439 -115T495 -191T630 -221V-360Q491 -358 409 -320Z" />
<glyph unicode="|" glyph-name="bar" horiz-adv-x="538" d="M185 1595H353V-359H185V1595Z" />
<glyph unicode="}" glyph-name="braceright" horiz-adv-x="707" d="M77 -221Q170 -214 212 -191T268 -115T282 52V251Q282 353 323 433T442 557Q366 601 324 677T282 863V1071Q282 1179 268 1230T211 1305T77 1335V1474Q217 1472 299 1434T419 1311T457 1080V893Q457
778 499 714T639 625V489Q543 469 500 405T457 221V34Q457 -111 419 -196T299 -320T77 -360V-221Z" />
<glyph unicode="~" glyph-name="asciitilde" horiz-adv-x="1194" d="M118 639Q169 687 235 716T374 746Q433 746 485 731T613 686Q680 659 723 646T812 633Q881 633 937 655T1042 722L1060 660Q1073 613 1077 598Q1027 549 959 520T815 490Q759 490 709 505T580
550Q513 578 468 591T376 605Q313 605 256 582T151 514L118 639Z" />
</font>
</defs>
</svg>
